img image001 image001 image001 image001 image001 image001 image001 image001 image001 image001 image001 image001 image001 image001 image001 image001
Planets Sun Sun Sun
Статистика раздачи
Автор: mari | Размер: 8.02 ГБ | Добавлен: 14 май 2018
Раздают: 116    Качают: 26
Скачать торрент
Скачать торрент

СообщениеДобавлено: 14 май 2018 

Посольство (1-14 серии из 14)

Перевод: Не требуется, cубтитры: отсутствуют
Формат: WEBRip-AVC, MKV, H.264, AC3
Страна: Россия
Режиссер: Артем Аксененко
Жанр: детектив, драма, криминал, шпионский фильм
Всего серий: 14
Продолжительность: 4 x ~ 01:55:00
Год выпуска: 2018

В ролях: Игорь Ливанов, Виктория Толстоганова, Гела Месхи, Виталий Кищенко, Диана Пожарская, Сергей Комаров (II), Николай Мачульский, Антон Кузнецов, Анна Андрусенко, Мартиньш Вилсонс, Дмитрий Чеботарёв, Юлия Ауг, Андрюс Паулавичюс, Андрей Руденский, Андрей Рябенков, Виктория Соловьёва (II), Игорь Кистол, Екатерина Волкова, Алёна Лаптева, Иван Верховых, Даниил Воробьёв, Дмитрий Фрид, Валентина Ельшанская, Эдуард Флёров, Юрий Ваксман, Анастасия Немец, Илья Ермолов, Валерий Гришко, Валерий Афанасьев, Александр Вершинин, Алёна Ивченко, Любовь Матюшина

Описание: Одна из стран восточной Европы находится на пороге принятия «антирусского пакета», её активно подталкивают к этому власти США и Великобритании. Необходима провокация, чтобы все население Страны поддержало своё правительство в борьбе с Россией. История начинается с того, что в одном из столичных баров местные спецслужбы задерживают первого секретаря российского посольства Геннадия Веденеева (Гела Месхи) с дипломатическим кейсом, набитым наркотиками. Событие моментально приобретает масштаб главного международного скандала. Теперь команде российских дипломатов во главе с Алексеем Прокофьевым (Игорь Ливанов) предстоит не только оперативно выяснить, кто и для чего сплёл такую сеть интриг вокруг российского посольства, но и разобраться в назревающем международном конфликте.

Рейтинг и доп. информация:


Видео: 1024x424 (2,40:1, 25 fps, AVC MPEG-4 (x264), ~ 2000 kbps , 0.184 bit/pixel
Аудио: 48 kHz, AC3, 2/0 (L,R) ch, ~192.00 kbps avg
Общее
Уникальный идентификатор : 241839658756939505417246146501283937482 (0xB5F09FC20164674C90FDE251523FFCCA)
Полное имя : C:\Posolstvo.(2018).WEB-DLRip.(AVC).Files-x\01.Посольство.(2018).WEB-DLRip.(AVC).by.Серый1779.Files-x.mkv
Формат : Matroska
Версия формата : Version 2
Размер файла : 1,76 Гбайт
Продолжительность : 1 ч. 54 м.
Общий поток : 2193 Кбит/сек
Дата кодирования : UTC 2018-05-07 23:14:18
Программа кодирования : mkvmerge v7.8.0 ('River Man') 32bit built on Apr 3 2015 12:11:22
Библиотека кодирования : libebml v1.3.1 + libmatroska v1.4.2

Видео
Идентификатор : 1
Формат : AVC
Формат/Информация : Advanced Video Codec
Профиль формата :
Настройки формата : CABAC / 9 Ref Frames
Параметр CABAC формата : Да
Параметр RefFrames формата : 9 кадров
Идентификатор кодека : V_MPEG4/ISO/AVC
Продолжительность : 1 ч. 54 м.
Битрейт : 2000 Кбит/сек
Ширина : 1024 пикселя
Высота : 424 пикселя
Соотношение сторон : 2,40:1
Режим частоты кадров : Постоянный
Частота кадров : 25,000 кадров/сек
Цветовое пространство : YUV
Субдискретизация насыщенности : 4:2:0
Битовая глубина : 8 бит
Тип развёртки : Прогрессивная
Бит/(Пиксели*Кадры) : 0.184
Размер потока : 1,57 Гбайт (89%)
Библиотека кодирования : x264 core 146 r2538 121396c
Настройки программы : cabac=1 / ref=9 / deblock=1:-2:-1 / analyse=0x3:0x133 / me=umh / subme=9 / psy=1 / psy_rd=1.00:0.15 / mixed_ref=1 / me_range=32 / chroma_me=1 / trellis=2 / 8x8dct=1 / cqm=0 / deadzone=21,11 / fast_pskip=0 / chroma_qp_offset=-3 / threads=18 / lookahead_threads=3 / sliced_threads=0 / nr=0 / decimate=1 / interlaced=0 / bluray_compat=0 / constrained_intra=0 / bframes=9 / b_pyramid=2 / b_adapt=2 / b_bias=0 / direct=1 / weightb=1 / open_gop=0 / weightp=2 / keyint=250 / keyint_min=25 / scenecut=40 / intra_refresh=0 / rc=2pass / mbtree=0 / bitrate=2000 / ratetol=1.0 / qcomp=0.60 / qpmin=0 / qpmax=69 / qpstep=4 / cplxblur=20.0 / qblur=0.5 / ip_ratio=1.40 / pb_ratio=1.30 / aq=2:1.00
Default : Да
Forced : Нет
Цветовой диапазон : Limited
Основные цвета : BT.709
Характеристики трансфера : BT.709
Коэффициенты матрицы : BT.709

Аудио
Идентификатор : 2
Формат : AC-3
Формат/Информация : Audio Coding 3
Идентификатор кодека : A_AC3
Продолжительность : 1 ч. 54 м.
Вид битрейта : Постоянный
Битрейт : 192 Кбит/сек
Каналы : 2 канала
Расположение каналов : Front: L R
Частота : 48,0 КГц
Частота кадров : 31,250 кадров/сек (1536 SPF)
Битовая глубина : 16 бит
Метод сжатия : С потерями
Размер потока : 157 Мбайт (9%)
ServiceKind/String : Complete Main
Default : Да
Forced : Нет








   Похожие торренты   Торрент   Размер 
В этой теме нет новых непрочитанных сообщений. Посольство (1-3 серии из 23) (Артем Аксененко) [2018, детектив, драма, криминал, шпионский фильм, WEBRip-AVC]

63 | 0

1.76 ГБ

В этой теме нет новых непрочитанных сообщений. Посольство (1-3 серии из 23) (Артем Аксененко) [2018, детектив, драма, криминал, шпионский фильм, WEBRip ]

18 | 0

1.36 ГБ

В этой теме нет новых непрочитанных сообщений. Посольство (1-2 серии из 7) (Артем Аксененко) [2018, детектив, драма, криминал, шпионский фильм, WEBRip ]

2 | 3

2.82 ГБ

В этой теме нет новых непрочитанных сообщений. Посольство (1-2 серии из 7) (Артем Аксененко) [2018, детектив, драма, криминал, шпионский фильм, WEBRip-AVC]

37 | 6

3.61 ГБ

В этой теме нет новых непрочитанных сообщений. Посольство (1-14 серии из 14) (Артем Аксененко) [2018, детектив, драма, криминал, шпионский фильм, WEBRip]

266 | 55

6.38 ГБ

В этой теме нет новых непрочитанных сообщений. Посольство (1-6 серии из 23) (Артем Аксененко) [2018, детектив, драма, криминал, шпионский фильм, WEBRip 720p]

31 | 7

4.59 ГБ

В этой теме нет новых непрочитанных сообщений. Посольство (1-14 серии из 14) (Артем Аксененко) [2018, детектив, драма, криминал, шпионский фильм, WEBRip 720p]

191 | 40

10.2 ГБ




Вы не можете начинать темы
Вы не можете отвечать на сообщения
Вы не можете редактировать свои сообщения
Вы не можете удалять свои сообщения
Вы не можете добавлять вложения

Перейти:  
Для Мосгорсуда, Роскомнадзора и рекламодателей: mosgorsud-torrent[собачка]yandex.ru
 Вход
ppkBB3cker v.2 © 2008-2014 @ PPK
[ Time : 0.032s | 16 Queries | GZIP : Off ]

Торрент трекер RS-torrent.com
cron