img image001 image001 image001 image001 image001 image001 image001 image001 image001 image001 image001 image001 image001 image001 image001 image001
Planets Sun Sun Sun
Статистика раздачи
Автор: mari | Размер: 9.48 ГБ | Добавлен: 14 май 2018
Раздают: 5    Качают: 5
Скачать торрент
Скачать торрент

СообщениеДобавлено: 14 май 2018 

Пожарная часть 19 / Station 19

Перевод: Профессиональный (многоголосый, закадровый) IdeaFilm
Субтитры: отсутствуют
Формат: WEBRip, MKV, h.264, AC3
Страна: США
Режиссер: Пэрис Барклай, Джеймс Хэнлон, Зинга Стюарт
Жанр: Боевик, триллер, драма, мелодрама
Всего серий: 10
Продолжительность: 6х ~00:45:00
Год выпуска: 2018

В ролях: Джессика Ортиз, Джейсон Уинстон Джордж, Грэй Дэймон, Барретт Досс, Альберто Фрезза, Джей Хейден, Окьерете Онаодован, Даниэль Савре, Мигель Сандовал, Калеб Александр Смит

Описание: Главные герои — доблестные пожарные из Сиэтла, рискующие жизнью на работе и не жалеющие своих чувств после службы.


Рейтинг на:

Видео: 1280x720 (16/9), 23,976 fps, AVC (х264), , ~4403 kbps avg, 0.199 bit/pixel
Аудио #1 Rus: :48 kHz, AC3 Dolby Digital, 3/2 (L,C,R,l,r) + LFE ch, ~384 kbps
Аудио #1 Eng: :48 kHz, AC3 Dolby Digital, 3/2 (L,C,R,l,r) + LFE ch, ~384 kbps

Внимание, присутствует реклама!


Внимание! Раздача ведётся путём добавления новых серий; при каждом добавлении создаётся новый торрент. Чтобы начать докачку новой серии, пользователям необходимо сделать следующее:
(1) остановить скачивание,
(2) удалить старый торрент у себя из клиента (старые серии удалять не надо),
(3) скачать новый торрент и запустить его у себя в клиенте вместо старого, при этом указать клиенту путь в старую папку куда и должно происходить скачивание новых серий.

Ваш клиент при этом должен произвести хеширование (проверку) старой папки (если не производит сам - помогите ему сделать это), и будет докачивать только те серии которых у вас ещё нет. Старые серии при этом не удаляются, а продолжают раздаваться!

Eсли вы уже удалили старые серии, то предотвратить повторную закачку старых серий можно, отжав галочку в соответствующих местах при запуске нового торрента. По возможности, желательно не удалять старые серии как можно дольше, чтобы релизёр не столько продолжал раздавать старые серии, а смог сконцентрироваться на новых.



Общее
Уникальный идентификатор : 236456013657779425177638912967487310823 (0xB1E3C58FAA19101BA78144885C3CCBE7)
Полное имя : D:\IDEAFILM\Station.19.S01.WEBRip.720p\Station.19.S01E02.WEBRip.720p-IdeaFilm.mkv
Формат : Matroska
Версия формата : Version 4 / Version 2
Размер файла : 1,57 Гбайт
Продолжительность : 43 м. 33 с.
Общий поток : 5167 Кбит/сек
Дата кодирования : UTC 2018-03-28 17:57:05
Программа кодирования : mkvmerge v12.0.0 ('Trust / Lust') 64bit
Библиотека кодирования : libebml v1.3.4 + libmatroska v1.4.5

Видео
Идентификатор : 1
Формат : AVC
Формат/Информация : Advanced Video Codec
Профиль формата :
Настройки формата : CABAC / 3 Ref Frames
Параметр CABAC формата : Да
Параметр RefFrames формата : 3 кадра
Идентификатор кодека : V_MPEG4/ISO/AVC
Продолжительность : 43 м. 33 с.
Битрейт : 4403 Кбит/сек
Ширина : 1280 пикселей
Высота : 720 пикселей
Соотношение сторон : 16:9
Режим частоты кадров : Постоянный
Частота кадров : 23,976 (24000/1001) кадра/сек
Стандарт вещания : NTSC
Цветовое пространство : YUV
Субдискретизация насыщенности : 4:2:0
Битовая глубина : 8 бит
Тип развёртки : Прогрессивная
Бит/(Пиксели*Кадры) : 0.199
Размер потока : 1,34 Гбайт (85%)
Язык : English
Default : Да
Forced : Нет
Цветовой диапазон : Limited
Основные цвета : BT.709
Характеристики трансфера : BT.709
Коэффициенты матрицы : BT.709

Аудио #1
Идентификатор : 2
Формат : AC-3
Формат/Информация : Audio Coding 3
Идентификатор кодека : A_AC3
Продолжительность : 43 м. 33 с.
Вид битрейта : Постоянный
Битрейт : 384 Кбит/сек
Каналы : 6 каналов
Расположение каналов : Front: L C R, Side: L R, LFE
Частота : 48,0 КГц
Частота кадров : 31,250 кадров/сек (1536 SPF)
Битовая глубина : 16 бит
Метод сжатия : С потерями
Размер потока : 120 Мбайт (7%)
Заголовок : IdeaFilm
Язык : Russian
ServiceKind/String : Complete Main
Default : Да
Forced : Нет

Аудио #2
Идентификатор : 3
Формат : AC-3
Формат/Информация : Audio Coding 3
Идентификатор кодека : A_AC3
Продолжительность : 42 м. 53 с.
Битрейт : 384 Кбит/сек
Каналы : 6 каналов
Частота : 48,0 КГц
Частота кадров : 31,250 кадров/сек (1536 SPF)
Метод сжатия : С потерями
Размер потока : 118 Мбайт (7%)
Язык : English
Default : Нет
Forced : Нет







   Похожие торренты   Торрент   Размер 
В этой теме нет новых непрочитанных сообщений. Пожарная часть 19, 1 сезон 1-6 серия из 10 / Station 19 [IdeaFilm] (Пэрис Барклай, Джеймс Хэнлон, Зинга Стюарт) [2018, Боевик, триллер, драма, мелодрама, WEBRip, P]

2 | 10

3.46 ГБ

В этой теме нет новых непрочитанных сообщений. Пожарная часть 19, 1 сезон 1-6 серия из 10 / Station 19 [IdeaFilm] (Пэрис Барклай, Джеймс Хэнлон, Зинга Стюарт) [2018, Боевик, триллер, драма, мелодрама, WEBRip 1080p, P]

3 | 0

13.99 ГБ

В этой теме нет новых непрочитанных сообщений. Алиенист, 1 сезон 1-6 серия из 10 / The Alienist [IdeaFilm] (Пако Кабесас, Джеймс Хоуз, Джэми Пэйн) [2018, драма, детектив, триллер, криминал, WEBRip, P]

6 | 2

3.74 ГБ

В этой теме нет новых непрочитанных сообщений. Алиенист, 1 сезон 1-6 серия из 10 / The Alienist [IdeaFilm] (Пако Кабесас, Джеймс Хоуз, Джэми Пэйн) [2018, драма, детектив, триллер, криминал, WEBRip 1080p, P]

5 | 0

15.1 ГБ

В этой теме нет новых непрочитанных сообщений. Сирена, 1 сезон 1-8 серия из 10 / Siren [IdeaFilm] (Ник Копус, Джей Карас, Скотт Чарльз Стюарт) [2018, Фэнтези, драма, WEBRip 720p, P]

3 | 15

12.36 ГБ

В этой теме нет новых непрочитанных сообщений. Сирена, 1 сезон 1-8 серия из 10 / Siren [IdeaFilm] (Ник Копус, Джей Карас, Скотт Чарльз Стюарт) [2018, Фэнтези, драма, WEBRip, P]

11 | 19

4.51 ГБ

В этой теме нет новых непрочитанных сообщений. Сирена, 1 сезон 1-8 серия из 10 / Siren [IdeaFilm] (Ник Копус, Джей Карас, Скотт Чарльз Стюарт) [2018, Фэнтези, драма, WEBRip 1080p, P]

0 | 5

18.18 ГБ




Вы не можете начинать темы
Вы не можете отвечать на сообщения
Вы не можете редактировать свои сообщения
Вы не можете удалять свои сообщения
Вы не можете добавлять вложения

Перейти:  
Для Мосгорсуда, Роскомнадзора и рекламодателей: mosgorsud-torrent[собачка]yandex.ru
 Вход
ppkBB3cker v.2 © 2008-2014 @ PPK
[ Time : 0.021s | 18 Queries | GZIP : Off ]

Торрент трекер RS-torrent.com
cron