img image001 image001 image001 image001 image001 image001 image001 image001 image001 image001 image001 image001 image001 image001 image001 image001
Planets Sun Sun Sun
Статистика раздачи
Автор: mari | Размер: 646.88 МБ | Добавлен: 14 май 2018
Раздают: 47    Качают: 5
Скачать торрент
Скачать торрент

СообщениеДобавлено: 14 май 2018 

Слушай тишину / Höre die Stille / Behind Enemy Lines


Перевод: Любительский (двухголосый) (Студия актуального кино), субтитры: русские (отключаемые) только на ломаную и плохо слышимую русскую речь
Формат: DVDRip-AVC, MKV, H.264, MP3
Страна: Германия
Режиссер: Эд Эренберг
Жанр: драма, военный
Продолжительность: 01:34:41
Год выпуска: 2016
В ролях:
Ларс Допплер, Кларисса Молохер, Доминик Фенстер, Антония Лангеноль, Андреас Цан, Андреас Эрб
Описание:
Октябрь 1941-го года, Восточный фронт, Украина. Небольшая группа немецких солдат попала в окружение и вынуждена пробираться к своим. По пути они заходят на ночлег в деревню,в которой живут русские немцы, переселившиеся туда еще 200 лет назад. Поначалу некоторые из местных обрадовались, надеясь, что немцы освободят их от сталинского режима, однако вскоре конфликт между жителями деревни и солдатами вермахта обернулся трагедией...



Видео: 720x300 (2,40:1), 25 fps, AVC (H.264), , ~744 kbps, 0.138 bit/pixel
Аудио: 48 kHz, MPEG Layer 3, 2 ch, ~192 kbps
Общее
Уникальный идентификатор : 204356474241004748797989358489017533496 (0x99BDA0141EDB54538FC53F33D73C4438)
Полное имя : M:\Hore.die.Stille_2016.DVDRip-AVC.mkv
Формат : Matroska
Версия формата : Version 4 / Version 2
Размер файла : 647 Мбайт
Продолжительность : 1 ч. 34 м.
Общий поток : 955 Кбит/сек
Название фильма : Behind Enemy Lines 2016
Дата кодирования : UTC 2018-05-10 03:21:32
Программа кодирования : mkvmerge v6.6.0 ('The Edge Of The In Between') built on Dec 1 2013 17:55:00
Библиотека кодирования : libebml v1.3.0 + libmatroska v1.4.1

Видео
Идентификатор : 1
Формат : AVC
Формат/Информация : Advanced Video Codec
Профиль формата :
Настройки формата : CABAC / 8 Ref Frames
Параметр CABAC формата : Да
Параметр RefFrames формата : 8 кадров
Идентификатор кодека : V_MPEG4/ISO/AVC
Продолжительность : 1 ч. 34 м.
Битрейт : 744 Кбит/сек
Ширина : 720 пикселей
Высота : 300 пикселей
Соотношение сторон : 2,40:1
Режим частоты кадров : Постоянный
Частота кадров : 25,000 кадров/сек
Цветовое пространство : YUV
Субдискретизация насыщенности : 4:2:0
Битовая глубина : 8 бит
Тип развёртки : Прогрессивная
Бит/(Пиксели*Кадры) : 0.138
Размер потока : 504 Мбайт (78%)
Библиотека кодирования : x264 core 155 r2901 7d0ff22
Настройки программы : cabac=1 / ref=8 / deblock=1:-2:-2 / analyse=0x3:0x133 / me=umh / subme=9 / psy=1 / psy_rd=1.20:0.00 / mixed_ref=1 / me_range=16 / chroma_me=1 / trellis=2 / 8x8dct=1 / cqm=0 / deadzone=21,11 / fast_pskip=1 / chroma_qp_offset=-2 / threads=9 / lookahead_threads=1 / sliced_threads=0 / nr=0 / decimate=1 / interlaced=0 / bluray_compat=0 / constrained_intra=0 / bframes=3 / b_pyramid=2 / b_adapt=2 / b_bias=0 / direct=3 / weightb=1 / open_gop=0 / weightp=2 / keyint=250 / keyint_min=25 / scenecut=40 / intra_refresh=0 / rc_lookahead=60 / rc=crf / mbtree=1 / crf=19.0 / qcomp=0.60 / qpmin=0 / qpmax=69 / qpstep=4 / vbv_maxrate=17500 / vbv_bufsize=17500 / crf_max=0.0 / nal_hrd=none / filler=0 / ip_ratio=1.40 / aq=1:0.90
Язык : English
Default : Да
Forced : Нет

Аудио
Идентификатор : 2
Формат : MPEG Audio
Версия формата : Version 1
Профиль формата : Layer 3
Настройки формата : Joint stereo / MS Stereo
Идентификатор кодека : A_MPEG/L3
Идентификатор кодека/Подсказка : MP3
Продолжительность : 1 ч. 34 м.
Вид битрейта : Постоянный
Битрейт : 192 Кбит/сек
Каналы : 2 канала
Частота : 48,0 КГц
Частота кадров : 41,667 кадра/сек (1152 SPF)
Метод сжатия : С потерями
Размер потока : 130 Мбайт (20%)
Default : Да
Forced : Нет

Текст
Идентификатор : 3
Формат : UTF-8
Идентификатор кодека : S_TEXT/UTF8
Идентификатор кодека/Информация : UTF-8 Plain Text
Default : Да
Forced : Нет


Трейлеры:









   Похожие торренты   Торрент   Размер 
В этой теме нет новых непрочитанных сообщений. В тылу врага 3: Колумбия / Behind Enemy Lines: Colombia (Тим Мэтисон) [2009, боевик, триллер, военный, HDTVRip] MVO / Боевики /Action

30 | 0

1.37 ГБ

В этой теме нет новых непрочитанных сообщений. В тылу врага 2: Ось зла / Behind Enemy Lines 2: Axis Of Evil (Джеймс Додсон) [2006, Боевик, триллер, военный, BDRip] DUB / Боевики /Action

14 | 0

1.46 ГБ

В этой теме нет новых непрочитанных сообщений. За линией огня / Behind Enemy Lines (1997) DVDRip

156 | 13

1.46 ГБ

В этой теме нет новых непрочитанных сообщений. В тылу врага 2: Ось зла / Behind Enemy Lines 2: Axis Of Evil (2006) DVDRip-AVC | D

201 | 48

1.46 ГБ

В этой теме нет новых непрочитанных сообщений. В тылу врага 2: Топор дьявола / Behind Enemy Lines 2 - Axis Of Evil (2006) DVDRip от PlanetaUA

15 | 3

1.37 ГБ

В этой теме нет новых непрочитанных сообщений. Pilot Down Behind Enemy Lines (2006) PC

30 | 12

1.4 ГБ

В этой теме нет новых непрочитанных сообщений. Enemies Swe - Behind Enemy Lines (2004) MP3

10 | 0

160.05 МБ




Вы не можете начинать темы
Вы не можете отвечать на сообщения
Вы не можете редактировать свои сообщения
Вы не можете удалять свои сообщения
Вы не можете добавлять вложения

Перейти:  
Для Мосгорсуда, Роскомнадзора и рекламодателей: mosgorsud-torrent[собачка]yandex.ru
 Вход
ppkBB3cker v.2 © 2008-2014 @ PPK
[ Time : 0.028s | 17 Queries | GZIP : Off ]

Торрент трекер RS-torrent.com
cron